<?xml version="1.0" standalone="no"?>
<!DOCTYPE svg PUBLIC "-//W3C//DTD SVG 1.1//EN" "http://www.w3.org/Graphics/SVG/1.1/DTD/svg11.dtd" >
<!--
2013-9-30: Created.
-->
<svg>
<metadata>
Created by iconfont
</metadata>
<defs>

<font id="iconfont" horiz-adv-x="1024" >
  <font-face
    font-family="iconfont"
    font-weight="500"
    font-stretch="normal"
    units-per-em="1024"
    ascent="896"
    descent="-128"
  />
    <missing-glyph />
    
    <glyph glyph-name="x" unicode="x" horiz-adv-x="1001"
d="M281 543q-27 -1 -53 -1h-83q-18 0 -36.5 -6t-32.5 -18.5t-23 -32t-9 -45.5v-76h912v41q0 16 -0.5 30t-0.5 18q0 13 -5 29t-17 29.5t-31.5 22.5t-49.5 9h-133v-97h-438v97zM955 310v-52q0 -23 0.5 -52t0.5 -58t-10.5 -47.5t-26 -30t-33 -16t-31.5 -4.5q-14 -1 -29.5 -0.5
t-29.5 0.5h-32l-45 128h-439l-44 -128h-29h-34q-20 0 -45 1q-25 0 -41 9.5t-25.5 23t-13.5 29.5t-4 30v167h911zM163 247q-12 0 -21 -8.5t-9 -21.5t9 -21.5t21 -8.5q13 0 22 8.5t9 21.5t-9 21.5t-22 8.5zM316 123q-8 -26 -14 -48q-5 -19 -10.5 -37t-7.5 -25t-3 -15t1 -14.5
t9.5 -10.5t21.5 -4h37h67h81h80h64h36q23 0 34 12t2 38q-5 13 -9.5 30.5t-9.5 34.5q-5 19 -11 39h-368zM336 498v228q0 11 2.5 23t10 21.5t20.5 15.5t34 6h188q31 0 51.5 -14.5t20.5 -52.5v-227h-327z" />
    

    
    <glyph glyph-name="exit" unicode="&#58895;" d="M527.034926-46.62055099999998c-247.174496 0-447.543989 200.370517-447.543989 447.538873 0 190.783161 119.585609 353.238137 287.701514 417.622516l0-69.242014c-131.960451-60.646242-223.765343-193.624882-223.765343-348.381525 0-211.845872 171.759899-383.606795 383.606795-383.606795 211.845872 0 383.605771 171.762969 383.605771 383.606795 0 154.75562-91.811032 287.736307-223.771483 348.411201L686.868191 818.540837c168.113859-64.384379 287.702538-226.840378 287.702538-417.622516C974.573799 153.74996599999997 774.203282-46.62055099999998 527.034926-46.62055099999998L527.034926-46.62055099999998zM495.066841 848.461287l63.931055 0L558.997895 399.768125l-63.931055 0L495.066841 848.461287 495.066841 848.461287z"  horiz-adv-x="1024" />

    
    <glyph glyph-name="hotspot" unicode="&#58885;" d="M512 104.10666700000002c286.72 0 423.253333 218.453333 457.386667 279.893333-40.96 61.44-201.386667 283.306667-457.386667 283.306667C221.866667 663.893333 78.506667 438.613333 47.786667 384 75.093333 325.973333 194.56 104.10666700000002 512 104.10666700000002M512 69.97333300000003C126.293333 69.97333300000003 10.24 384 10.24 384S160.426667 698.026667 512 698.026667c317.44 0 498.346667-314.026667 498.346667-314.026667S863.573333 69.97333300000003 512 69.97333300000003L512 69.97333300000003 512 69.97333300000003zM512 247.46666700000003c75.093333 0 136.533333 61.44 136.533333 136.533333s-61.44 136.533333-136.533333 136.533333-136.533333-61.44-136.533333-136.533333S436.906667 247.46666700000003 512 247.46666700000003M512 213.33333300000004c-95.573333 0-170.666667 75.093333-170.666667 170.666667 0 95.573333 75.093333 170.666667 170.666667 170.666667s170.666667-75.093333 170.666667-170.666667C682.666667 288.42666699999995 607.573333 213.33333300000004 512 213.33333300000004L512 213.33333300000004 512 213.33333300000004z"  horiz-adv-x="1024" />

    
    <glyph glyph-name="link" unicode="&#58901;" d="M823.680129 692.800577l-2.881047 2.882646c-66.47513 66.47553-175.227596 66.47553-241.699728 0l-154.000388-154.043558c-66.476129-66.476129-66.476129-175.226197 0-241.745297l2.836477-2.793106c5.535847-5.535247 11.437845-10.521866 17.47715-15.189701l56.363985 56.412952c-6.587134 3.841396-12.810315 8.553201-18.437499 14.181385l-2.836677 2.792107c-36.096127 36.096127-36.096127 94.838899 0 130.936625l154.090527 153.997989c36.007587 36.097126 94.703991 36.097126 130.801716 0l2.884045-2.835677c36.097526-36.099125 36.097526-94.842497 0-130.894653l-69.633988-69.678958c12.076812-29.873746 17.796934-61.718355 17.249305-93.42146l107.744149 107.697181C890.159256 517.573981 890.159256 626.3254469999999 823.680129 692.800577L823.680129 692.800577zM596.06785 470.863051c-5.532249 5.534847-11.437246 10.522865-17.521121 15.142733l-56.320015-56.364985c6.587534-3.888963 12.811314-8.5552 18.440497-14.182984l2.881047-2.881446c36.096527-36.051157 36.096527-94.79393 0-130.893654l-154.042959-153.99699c-36.099125-36.050558-94.795928-36.050558-130.894653 0l-2.882446 2.881047c-36.097126 36.097526-36.097126 94.840898 0 130.846686l69.678958 69.680956c-12.076812 29.876943-17.842903 61.762725-17.294274 93.468828l-107.78812-107.653211c-66.476129-66.521099-66.476129-175.312538 0-241.744697l2.882646-2.882046c66.47513-66.433158 175.226596-66.433158 241.701327 0l153.998389 154.04096c66.38619 66.478128 66.38619 175.271166 0 241.703125L596.06785 470.863051 596.06785 470.863051z"  horiz-adv-x="1024" />

    
    <glyph glyph-name="info" unicode="&#58896;" d="M512.50142-62.39788599999997c-119.320573 0-231.499491 46.465265-315.871087 130.837884C112.258737 152.811594 65.792449 264.98948900000005 65.792449 384.311085c0 119.319549 46.466288 231.499491 130.837884 315.871087C281.002952 784.554792 393.180847 831.020056 512.50142 831.020056s231.499491-46.465265 315.871087-130.837884c84.372619-84.372619 130.837884-196.551538 130.837884-315.871087 0-119.321596-46.465265-231.499491-130.837884-315.871087C744.000911-15.932622000000038 631.821993-62.39788599999997 512.50142-62.39788599999997zM512.50142 790.037666c-223.718271 0-405.726581-182.00831-405.726581-405.726581s182.00831-405.726581 405.726581-405.726581c223.718271 0 405.727605 182.00831 405.727605 405.726581S736.220714 790.037666 512.50142 790.037666zM510.150886 120.04635299999995c-18.107403 0-32.745798 14.678304-32.745798 32.785707L477.405087 443.808154c0 18.108426 14.638395 32.785707 32.745798 32.785707 18.107403 0 32.745798-14.678304 32.745798-32.785707l0-290.976094C542.896684 134.72465699999998 528.258289 120.04635299999995 510.150886 120.04635299999995zM511.357364 599.541031m-45.080731 0a44.054 44.054 0 1 1 90.161463 0 44.054 44.054 0 1 1-90.161463 0Z"  horiz-adv-x="1024" />

    
    <glyph glyph-name="right" unicode="&#59185;" d="M828.929698 394.17064L395.145084 827.941951c-5.615904 5.624091-14.716166 5.624091-20.333094 0-5.615904-5.616928-5.615904-14.710027 0-20.326954l423.618067-423.610904-423.618067-423.617044c-5.615904-5.616928-5.615904-14.71719 0-20.334117 2.808976-2.807952 6.487761-4.211928 10.16757-4.211928 3.678786 0 7.357572 1.403976 10.166547 4.211928l433.784614 433.784614c2.696412 2.696412 4.212952 6.347568 4.212952 10.16757S831.626109 391.475252 828.929698 394.17064zM653.399939 384.004093c0 3.818979-1.51654 7.470135-4.212952 10.166547L215.402373 827.941951c-5.616928 5.624091-14.716166 5.624091-20.333094 0-5.616928-5.616928-5.616928-14.710027 0-20.326954l423.618067-423.610904-423.618067-423.617044c-5.616928-5.616928-5.616928-14.71719 0-20.334117 2.807952-2.807952 6.487761-4.211928 10.166547-4.211928s7.357572 1.403976 10.166547 4.211928l433.784614 433.784614C651.882376 376.533958 653.399939 380.185114 653.399939 384.004093z"  horiz-adv-x="1024" />

    
    <glyph glyph-name="left" unicode="&#59200;" d="M225.57506 384.00614L649.180847 807.611927c5.615904 5.624091 5.615904 14.716166 0 20.340257-5.617951 5.609765-14.718213 5.609765-20.334117 0L195.074396 394.172687c-5.616928-5.616928-5.616928-14.710027 0-20.333094l433.772334-433.786661c2.807952-2.807952 6.487761-4.211928 10.16757-4.211928s7.356548 1.403976 10.16757 4.211928c5.615904 5.616928 5.615904 14.71719 0 20.334117L225.57506 384.00614zM405.318794 384.00614L828.923558 807.611927c5.617951 5.624091 5.617951 14.716166 0 20.340257-5.615904 5.609765-14.716166 5.609765-20.332071 0L374.819153 394.172687c-5.616928-5.616928-5.616928-14.710027 0-20.333094l433.772334-433.786661c2.807952-2.807952 6.487761-4.211928 10.16757-4.211928 3.677762 0 7.356548 1.403976 10.165524 4.211928 5.617951 5.616928 5.617951 14.71719 0 20.334117L405.318794 384.00614z"  horiz-adv-x="1024" />

    
    <glyph glyph-name="animation" unicode="&#58893;" d="M566.613333-32.42666699999995l-92.16 0c-44.373333 0-78.506667 34.133333-78.506667 78.506667l0 112.64c-98.986667 47.786667-160.426667 146.773333-160.426667 259.413333 0 157.013333 129.706667 286.72 286.72 286.72s286.72-129.706667 286.72-286.72c0-109.226667-64.853333-211.626667-160.426667-259.413333l0-112.64C645.12 1.7066670000000386 610.986667-32.42666699999995 566.613333-32.42666699999995zM522.24 660.48c-136.533333 0-245.76-109.226667-245.76-245.76 0-98.986667 58.026667-187.733333 150.186667-225.28l13.653333-6.826667 0-136.533333c0-20.48 17.066667-37.546667 37.546667-37.546667l92.16 0c20.48 0 37.546667 17.066667 37.546667 37.546667l0 136.533333 13.653333 6.826667c92.16 37.546667 150.186667 126.293333 150.186667 225.28C768 551.253333 655.36 660.48 522.24 660.48zM542.72-100.69333300000005l-44.373333 0c-27.306667 0-51.2 23.893333-51.2 51.2l0 34.133333 34.133333 0 0-34.133333c0-6.826667 6.826667-17.066667 17.066667-17.066667l44.373333 0c6.826667 0 17.066667 6.826667 17.066667 17.066667l0 51.2 34.133333 0 0-51.2C593.92-80.21333300000003 570.026667-100.69333300000005 542.72-100.69333300000005zM518.826667 250.88c-6.826667 0-13.653333 3.413333-17.066667 10.24l-68.266667 112.64c-3.413333 6.826667-3.413333 13.653333 0 20.48 3.413333 6.826667 10.24 10.24 17.066667 10.24l139.946667 0c6.826667 0 13.653333-3.413333 17.066667-10.24 3.413333-6.826667 3.413333-13.653333 0-20.48l-68.266667-112.64C532.48 254.29333299999996 529.066667 250.88 518.826667 250.88zM488.106667 363.52l34.133333-54.613333 34.133333 54.613333L488.106667 363.52zM518.826667 110.93333299999995c-10.24 0-20.48 10.24-20.48 20.48l0 133.12c0 10.24 10.24 20.48 20.48 20.48s20.48-10.24 20.48-20.48l0-133.12C539.306667 117.75999999999999 532.48 110.93333299999995 518.826667 110.93333299999995zM614.4 93.866667l-194.56 0c-10.24 0-20.48 10.24-20.48 20.48s10.24 20.48 20.48 20.48L614.4 134.82666700000004c10.24 0 20.48-10.24 20.48-20.48S628.053333 93.866667 614.4 93.866667zM119.466667 431.786667L34.133333 431.786667c-10.24 0-20.48 10.24-20.48 20.48s10.24 20.48 20.48 20.48l85.333333 0c10.24 0 20.48-10.24 20.48-20.48S129.706667 431.786667 119.466667 431.786667zM515.413333 756.0533330000001c-10.24 0-20.48 10.24-20.48 20.48L494.933333 861.866667c0 10.24 10.24 20.48 20.48 20.48s20.48-10.24 20.48-20.48l0-85.333333C535.893333 766.293333 525.653333 756.0533330000001 515.413333 756.0533330000001zM989.866667 431.786667l-85.333333 0c-10.24 0-20.48 10.24-20.48 20.48s10.24 20.48 20.48 20.48L989.866667 472.746667c10.24 0 20.48-10.24 20.48-20.48S1000.106667 431.786667 989.866667 431.786667zM252.586667 667.3066670000001C245.76 667.3066670000001 242.346667 667.3066670000001 238.933333 670.72L177.493333 732.16C167.253333 738.986667 167.253333 752.64 174.08 759.466667 184.32 766.293333 194.56 769.706667 204.8 759.466667l61.44-58.026667c6.826667-6.826667 10.24-20.48 0-27.306667C262.826667 667.3066670000001 256 667.3066670000001 252.586667 667.3066670000001zM785.066667 663.893333c-6.826667 0-10.24 3.413333-13.653333 6.826667-6.826667 6.826667-6.826667 20.48 0 27.306667L829.44 759.466667c6.826667 6.826667 20.48 6.826667 27.306667 0 6.826667-6.826667 6.826667-20.48 0-27.306667l-61.44-61.44C795.306667 667.3066670000001 788.48 663.893333 785.066667 663.893333z"  horiz-adv-x="1024" />

    
    <glyph glyph-name="fullscreen" unicode="&#58911;" d="M641.750109 511.899972l205.227128 204.519-0.704035-115.89966c-0.282433-9.611915 7.489578-18.09103 17.101493-17.808598l12.297071 0c9.611915 0.283456 17.667382 5.936199 17.808598 15.689331l0.565888 172.57752c0 0.14224 0.282433 9.187243 0.282433 9.187243 0.14224 4.804423-0.99056 9.187243-4.100388 12.297071-3.109828 3.109828-7.347339 5.086855-12.297071 4.946662l-8.763594-0.14224c-0.141216 0-0.278339 0-0.420579-0.14224L697.581696 797.833213c-9.611915-0.283456-17.667382-8.200776-17.808598-17.950837l0-12.297071c1.416256-11.44875 10.458189-18.092054 20.070104-17.808598l112.789832-0.283456-204.66124-203.814965c-9.329483-9.329483-9.329483-24.449855 0-33.778314 9.329483-9.470699 24.452925-9.470699 33.782408 0L641.750109 511.899972zM383.095141 319.11010699999997L177.726797 115.29411900000002l0.707105 115.338888c0.283456 9.607822-7.492648 18.086937-17.104563 17.808598l-13.001105 0c-9.611915-0.283456-17.667382-5.937223-17.808598-15.690354l-0.565888-172.718737c0-0.14224-0.282433-9.187243-0.282433-9.187243-0.14224-4.808516 0.99056-9.187243 4.096295-12.297071 3.109828-3.109828 7.351432-5.086855 12.297071-4.946662l8.762571 0.14224c0.14224 0 0.283456 0 0.425695 0.14224l171.873486-0.708128c9.607822 0.283456 17.667382 8.196683 17.808598 17.950837L344.93503 63.42477399999996c-1.415232 11.44875-10.461259 18.092054-20.074198 17.808598L212.069977 81.51682800000003 416.59 285.32872299999997c9.329483 9.329483 9.329483 24.453948 0 33.782408C407.40685 328.58182999999997 392.424624 328.58182999999997 383.095141 319.11010699999997L383.095141 319.11010699999997zM894.047276 60.03251399999999l-0.424672 172.718737c-0.283456 9.612938-8.200776 15.406898-17.809621 15.690354l-12.296047 0c-9.612938 0.278339-17.243733-8.200776-17.105586-17.808598l0.708128-115.903753L641.750109 319.11010699999997c-9.329483 9.329483-24.452925 9.329483-33.782408 0-9.325389-9.328459-9.325389-24.452925 0-33.782408L812.490795 81.51682800000003l-112.789832-0.283456c-9.611915 0.283456-18.515702-6.502088-20.073174-17.808598l0-12.297071c0.282433-9.611915 8.200776-17.667382 17.808598-17.950837l171.166381 0.708128c0.141216 0 0.282433-0.14224 0.424672-0.14224l8.763594-0.14224c4.803399-0.141216 9.187243 1.694595 12.296047 4.946662 3.109828 3.109828 4.238534 7.488555 4.097318 12.297071 0 0-0.14224 9.046027-0.14224 9.187243L894.047276 60.03149099999996zM212.216309 749.493252l112.789832 0.283456c9.607822-0.283456 18.512632 6.502088 20.070104 17.808598L345.076246 779.883399c-0.283456 9.611915-8.196683 17.667382-17.808598 17.950837l-172.011632-0.708128c-0.14224 0-0.283456 0.14224-0.425695 0.14224l-8.761548 0.14224c-4.808516 0.141216-9.187243-1.694595-12.297071-4.946662-3.109828-3.109828-4.242627-7.488555-4.096295-12.297071 0 0 0.282433-9.046027 0.282433-9.187243l0.420579-172.718737c0.14224-9.608845 8.200776-15.406898 17.808598-15.686261l13.005198 0c9.611915-0.282433 17.242709 8.196683 17.10047 17.808598l-0.564865 115.334795 205.231221-203.958228c9.324366-9.329483 24.448832-9.329483 33.777291 0 9.329483 9.329483 9.329483 24.452925 0 33.782408L212.216309 749.493252 212.216309 749.493252zM212.216309 749.493252"  horiz-adv-x="1024" />

    
    <glyph glyph-name="quanjing" unicode="&#59069;" d="M224.512 349.2608c-32.9984 0-59.9296 26.9312-59.9296 59.9296 0 19.0976-15.6416 34.7392-34.7392 34.7392-19.0976 0-34.7392-15.6416-34.7392-34.7392 0-71.4496 58.1888-129.408 129.408-129.408 71.4496 0 129.408 58.1888 129.408 129.408 0 37.3504-15.8464 71.0144-41.2672 94.6688 25.3952 23.68 41.2672 57.3184 41.2672 94.6688 0 71.4496-58.1888 129.408-129.408 129.408-71.4496 0-129.408-58.1888-129.408-129.408 0-19.0976 15.6416-34.7392 34.7392-34.7392 19.0976 0 34.7392 15.6416 34.7392 34.7392 0 32.9984 26.9312 59.9296 59.9296 59.9296s59.9296-26.9312 59.9296-59.9296c0-32.9984-26.9312-59.9296-59.9296-59.9296-19.0976 0-34.7392-15.6416-34.7392-34.7392 0-19.0976 15.6416-34.7392 34.7392-34.7392 32.9984 0 59.9296-26.9312 59.9296-59.9296C284.6464 376.192 257.7152 349.2608 224.512 349.2608L224.512 349.2608zM641.408 426.5472c0 71.4496-58.1888 129.408-129.408 129.408-21.7088 0-42.1376-5.4272-59.9296-14.7712l0 57.5488c0 32.9984 26.9312 59.9296 59.9296 59.9296s59.9296-26.9312 59.9296-59.9296c0-19.0976 15.6416-34.7392 34.7392-34.7392 19.0976 0 34.7392 15.6416 34.7392 34.7392 0 71.4496-58.1888 129.408-129.408 129.408s-129.408-58.1888-129.408-129.408l0-189.568c0-71.4496 58.1888-129.408 129.408-129.408s129.408 58.1888 129.408 129.408L641.408 426.5472 641.408 426.5472zM571.9296 409.1904c0-32.9984-26.9312-59.9296-59.9296-59.9296s-59.9296 26.9312-59.9296 59.9296l0 17.3824c0 32.9984 26.9312 59.9296 59.9296 59.9296s59.9296-26.9312 59.9296-59.9296L571.9296 409.1904 571.9296 409.1904zM799.488 279.7824c71.4496 0 129.408 58.1888 129.408 129.408l0 189.568c0 71.4496-58.1888 129.408-129.408 129.408s-129.408-58.1888-129.408-129.408l0-189.568C669.8752 337.9712 728.064 279.7824 799.488 279.7824L799.488 279.7824zM739.3536 598.7584c0 32.9984 26.9312 59.9296 59.9296 59.9296 32.9984 0 59.9296-26.9312 59.9296-59.9296l0-189.568c0-32.9984-26.9312-59.9296-59.9296-59.9296-32.9984 0-59.9296 26.9312-59.9296 59.9296L739.3536 598.7584 739.3536 598.7584zM420.1472 135.808c-6.7328 6.7328-17.8176 6.7328-24.5248 0-6.7328-6.7328-6.7328-17.8176 0-24.5248l73.8304-73.8304c-109.6448 4.1216-211.072 23.8848-287.7184 56.2432-77.312 32.3584-121.3952 74.9056-121.3952 116.608 0 20.1984 9.984 40.3968 29.5424 59.9296 6.7328 6.7328 6.7328 17.8176 0 24.5248-6.7328 6.7328-17.8176 6.7328-24.5248 0C39.0656 268.4672 25.6 240.0256 25.6 210.2784c0-57.3184 50.5856-110.08 142.2336-148.736 81.2032-34.304 188.0576-54.9376 302.9248-59.0592l-75.3408-75.3408c-6.7328-6.7328-6.7328-17.8176 0-24.5248C398.8736-100.8896 403.2-102.4 407.7824-102.4c4.5568 0 8.9088 1.7408 12.3648 4.992l104.2176 104.2176c6.7328 6.7328 6.7328 17.8176 0 24.5248L420.1472 135.808 420.1472 135.808zM933.9136 294.7584c-6.7328-6.7328-6.7328-17.8176 0-24.5248 19.7632-19.5328 29.5424-39.7312 29.5424-59.9296 0-76.0064-139.6224-146.3552-332.0064-167.424-9.5488-1.0752-16.512-9.5488-15.4112-19.0976 0.8704-8.9088 8.4736-15.4112 17.152-15.4112 0.64 0 1.3056 0 1.9456 0 217.1392 23.68 362.8544 104.8832 362.8544 201.9328 0 29.7472-13.4656 58.1888-39.9616 84.48C951.7056 301.696 940.8512 301.4912 933.9136 294.7584L933.9136 294.7584zM928.9216 731.4176C967.1424 731.4176 998.4 762.7008 998.4 800.9216 998.4 839.1424 967.1424 870.4 928.9216 870.4c-38.2208 0-69.4784-31.2576-69.4784-69.4784C859.4176 762.7008 890.7008 731.4176 928.9216 731.4176L928.9216 731.4176zM928.9216 835.6608c19.0976 0 34.7392-15.6416 34.7392-34.7392 0-19.0976-15.6416-34.7392-34.7392-34.7392s-34.7392 15.6416-34.7392 34.7392C894.1824 820.0192 909.7984 835.6608 928.9216 835.6608L928.9216 835.6608z"  horiz-adv-x="1024" />

    
    <glyph glyph-name="play" unicode="&#58916;" d="M512 884.363636C236.218182 884.363636 11.636364 659.7818179999999 11.636364 384s224.581818-500.363636 500.363636-500.363636c275.781818 0 500.363636 224.581818 500.363636 500.363636S787.781818 884.363636 512 884.363636zM512-69.81818199999998C261.818182-69.81818199999998 58.181818 133.81818199999998 58.181818 384 58.181818 634.181818 261.818182 837.818182 512 837.818182c250.181818 0 453.818182-203.636364 453.818182-453.818182C965.818182 133.81818199999998 762.181818-69.81818199999998 512-69.81818199999998zM379.345455 644.654545L830.836364 384 379.345455 123.34545500000002Z"  horiz-adv-x="1024" />

    
    <glyph glyph-name="close" unicode="&#59207;" d="M1017.6-80L550.4 384 1017.6 848c9.6 9.6 9.6 28.8 0 38.4-9.6 9.6-28.8 9.6-38.4 0L512 422.4 48 889.6C38.4 899.2 19.2 899.2 9.6 889.6c-9.6-9.6-9.6-28.8 0-38.4L473.6 384 6.4-80c-9.6-9.6-9.6-28.8 0-38.4 9.6-9.6 28.8-9.6 38.4 0L512 345.6l464-464c9.6-9.6 28.8-9.6 38.4 0 12.8 9.6 12.8 25.6 3.2 38.4z"  horiz-adv-x="1024" />

    
    <glyph glyph-name="pause1" unicode="&#58886;" d="M500.864-56.639999999999986c-239.648 0-434.656 194.976-434.656 434.624 0 239.68 195.008 434.624 434.656 434.624 239.68 0 434.656-194.944 434.656-434.624 0-239.68-195.008-434.624-434.656-434.624m0 933.28C225.92 876.64 2.24 652.896 2.24 377.98400000000004 2.24 103.03999999999996 225.92-120.63999999999999 500.864-120.63999999999999s498.656 223.68 498.656 498.624c0 274.912-223.68 498.624-498.656 498.624M404.864 569.9839999999999a32 32 0 0 1-32-32v-320a32 32 0 0 1 64 0v320a32 32 0 0 1-32 32M596.864 569.9839999999999a32 32 0 0 1-32-32v-320a32 32 0 0 1 64 0v320a32 32 0 0 1-32 32"  horiz-adv-x="1024" />

    
    <glyph glyph-name="vr" unicode="&#58912;" d="M898.8444448 702.5777781300001H125.1555552c-38.6844448 0-68.26666667-29.58222187-68.26666667-68.26666666v-500.62222294c0-38.6844448 29.58222187-68.26666667 68.26666667-68.26666666h182.0444448c22.7555552 0 43.2355552 11.37777813 54.61333333 27.30666666l150.18666667 207.07555627 150.18666667-207.07555627c13.65333333-18.2044448 34.13333333-27.30666667 54.61333333-27.30666666h182.0444448c38.6844448 0 68.26666667 29.58222187 68.26666667 68.26666666V634.31111147c0 38.6844448-29.58222187 68.26666667-68.26666667 68.26666666z m22.7555552-568.8888896c0-13.65333333-9.10222187-22.7555552-22.7555552-22.7555552h-182.0444448c-6.82666667 0-13.65333333 4.55111147-18.2044448 9.10222187l-168.3911104 232.10666667c-4.55111147 4.55111147-11.37777813 9.10222187-18.2044448 9.10222293s-13.65333333-4.55111147-18.2044448-9.10222293l-168.3911104-232.10666667c-4.55111147-4.55111147-11.37777813-9.10222187-18.2044448-9.10222187H125.1555552c-13.65333333 0-22.7555552 9.10222187-22.7555552 22.7555552V634.31111147c0 13.65333333 9.10222187 22.7555552 22.7555552 22.7555552h773.6888896c13.65333333 0 22.7555552-9.10222187 22.7555552-22.7555552v-500.62222294z m-182.0444448 364.0888896c-38.6844448 0-68.26666667-29.58222187-68.26666667-68.26666666s29.58222187-68.26666667 68.26666667-68.26666667 68.26666667 29.58222187 68.26666667 68.26666667-29.58222187 68.26666667-68.26666667 68.26666666z m-455.1111104 0c-38.6844448 0-68.26666667-29.58222187-68.26666667-68.26666666s29.58222187-68.26666667 68.26666667-68.26666667 68.26666667 29.58222187 68.26666667 68.26666667-29.58222187 68.26666667-68.26666667 68.26666666z"  horiz-adv-x="1024" />

    
    <glyph glyph-name="file" unicode="&#58960;" d="M349.7 732.4v-136.2h-136.1l136.1 136.2M389.7 829l-272.7-272.7h272.7v272.7zM867 789v-810h-710v560.7l249.3 249.3h460.7M907 829h-517.3l-272.7-272.7v-617.3h790v890zM762 539.4h-350v-40h350v40zM762 419.3h-500v-40h500v40zM762 299.1h-500v-40h500v40zM762 178.9h-500v-40h500v40z"  horiz-adv-x="1024" />

    
    <glyph glyph-name="pause3" unicode="&#58921;" d="M511.88736 884.79744C235.7504 884.79744 11.09504 660.14208 11.09504 384c0-276.13696 224.65536-500.79744 500.79232-500.79744 276.13184 0 500.7872 224.66048 500.79232 500.79744 0 276.14208-224.65024 500.79744-500.79232 500.79744z m0-948.10112c-246.64064 0-447.29856 200.66304-447.29856 447.30368 0 246.64576 200.65792 447.30368 447.29856 447.30368 246.64576 0 447.29856-200.66304 447.29856-447.30368-0.00512-246.64064-200.65792-447.30368-447.29856-447.30368zM427.24352 601.216v-428.29824c0-16.09216-13.08672-29.17888-29.17888-29.17888s-29.17888 13.08672-29.17888 29.17888V601.216c0 16.09216 13.08672 29.17888 29.17888 29.17888s29.17888-13.08672 29.17888-29.17888z m227.64544 0v-428.29824c0-16.09216-13.08672-29.17888-29.17888-29.17888s-29.17888 13.08672-29.17888 29.17888V601.216c0 16.09216 13.08672 29.17888 29.17888 29.17888s29.17888-13.08672 29.17888-29.17888z"  horiz-adv-x="1024" />

    
    <glyph glyph-name="text" unicode="&#59188;" d="M779.776 704H224a32 32 0 0 1 0-64h245.888v-597.888a32 32 0 0 1 64 0V640h245.888a32 32 0 0 1 0 64"  horiz-adv-x="1024" />

    
    <glyph glyph-name="video" unicode="&#58983;" d="M512 884C236.31 884 12 659.69 12 384s224.31-500 500-500 500 224.31 500 500S787.69 884 512 884z m0-944.44C266.94-60.440000000000055 67.56 138.94000000000005 67.56 384S266.94 828.44 512 828.44 956.44 629.06 956.44 384 757.06-60.440000000000055 512-60.440000000000055zM749.63 407.11L416.3 629.3299999999999a27.78 27.78 0 0 1-43.19-23.11v-444.44a27.78 27.78 0 0 1 43.19-23.11l333.33 222.22a27.78 27.78 0 0 1 0 46.22z m-321-193.44V554.3299999999999L684.15 384z"  horiz-adv-x="1024" />

    
    <glyph glyph-name="more" unicode="&#59000;" d="M640.896 384a1.002 1.002 0 1 1 128.256 0 1.002 1.002 0 1 1-128.256 0zM448.576 384a1.002 1.002 0 1 1 128.256 0 1.002 1.002 0 1 1-128.256 0zM256.384 384a1.002 1.002 0 1 1 128.256 0 1.002 1.002 0 1 1-128.256 0zM512-96C247.28-96 32 119.39999999999998 32 384.06S247.28 864 512 864c264.6 0 480-215.28 480-479.94S776.6-96 512-96z m0 924.24c-244.98 0-444.24-199.2-444.24-444.18 0-244.92 199.26-444.24 444.24-444.24 244.86 0 444.18 199.32 444.18 444.24 0 244.98-199.32 444.18-444.18 444.18z"  horiz-adv-x="1024" />

    
    <glyph glyph-name="audio2" unicode="&#59041;" d="M780.9 385.8c0 76.9-40.7 143.9-101.1 180-2.7 1.5-9.2 4.4-13.7 4.4-13.4 0-24.3-11.2-24.3-24.9 0-9.2 4.8-17.5 12.1-21.8 46.7-27.2 78.2-78.7 78.2-137.7 0-60.1-32.6-112.3-80.7-139.2-7-4.4-11.6-12.3-11.6-21.3 0-13.8 10.9-24.9 24.3-24.9 5.7 0 12.5 3.4 12.5 3.4 62.2 35.6 104.3 103.8 104.3 182z m-28 306.7c-4.5 2.8-9 5-14.5 5-13.3 0-24.2-11.1-24.2-24.8 0-9.9 5.7-17.8 13.8-22.3 88.7-53.1 148.4-151.7 148.4-264.6 0-112.9-59.6-211.4-148.2-264.5-7.8-4.3-14.5-12.5-14.5-22.7 0-13.7 10.8-24.8 24.2-24.8 5.4 0 9.6 2.1 14.3 4.9 103 61.6 172.2 176 172.2 307.1 0 130.8-68.9 245-171.5 306.7z m-204.4 53.3c-7.5 3.7-15.6 5.5-24 5.5-13.2 0-26-4.8-36.1-13.4l-0.7-0.6-185.8-185-143.8 0.6c-14.8 0-29.3-6.1-39.8-16.8-10.7-11-16.6-25.5-16.6-40.9l-0.7-217c0-15.5 5.9-30 16.5-40.9 10.5-10.8 25-17 40-17h145.3l184.9-186.8 0.8-0.6c10.1-8.6 22.9-13.4 36.1-13.4 8.2 0 16.4 1.9 23.9 5.5 19.7 9.5 32.5 30 32.5 52.4V693.6c-0.1 22.3-12.8 42.8-32.5 52.2z"  horiz-adv-x="1024" />

    
    <glyph glyph-name="list" unicode="&#58966;" d="M512-120.68571399999996C233.2672-120.68571399999996 7.314286 105.2672 7.314286 384 7.314286 662.7328 233.2672 888.685714 512 888.685714c278.7328 0 504.685714-225.952914 504.685714-504.685714 0-278.7328-225.952914-504.685714-504.685714-504.685714z m0 43.885714c254.478629 0 460.8 206.321371 460.8 460.8S766.478629 844.8 512 844.8 51.2 638.478629 51.2 384 257.521371-76.79999999999995 512-76.79999999999995zM266.971429 505.329371h65.828571c0-18.051657 14.7456-32.709486 32.914286-32.709485s32.914286 14.657829 32.914285 32.709485h329.142858c18.168686 0 32.914286 14.628571 32.914285 32.709486 0 18.051657-14.7456 32.680229-32.914285 32.680229h-329.142858c0 18.051657-14.7456 32.709486-32.914285 32.709485s-32.914286-14.628571-32.914286-32.709485h-65.828571c-18.168686 0-32.914286-14.628571-32.914286-32.680229s14.7456-32.709486 32.914286-32.709486z m460.8-103.277714h-65.828572c0 18.080914-14.7456 32.709486-32.914286 32.709486s-32.914286-14.628571-32.914285-32.680229H266.971429C248.802743 402.080914 234.057143 387.423086 234.057143 369.37142900000003c0-18.051657 14.7456-32.709486 32.914286-32.709486h329.142857c0-18.051657 14.7456-32.680229 32.914285-32.680229s32.914286 14.628571 32.914286 32.680229h65.828572c18.168686 0 32.914286 14.657829 32.914285 32.709486 0 18.051657-14.7456 32.709486-32.914285 32.709485z m0-168.638171h-329.142858c0 18.051657-14.7456 32.709486-32.914285 32.709485s-32.914286-14.657829-32.914286-32.709485h-65.828571c-18.168686 0-32.914286-14.628571-32.914286-32.709486 0-18.051657 14.7456-32.680229 32.914286-32.680229h65.828571c0-18.051657 14.7456-32.709486 32.914286-32.709485s32.914286 14.628571 32.914285 32.709485h329.142858c18.168686 0 32.914286 14.628571 32.914285 32.680229s-14.7456 32.709486-32.914285 32.709486z"  horiz-adv-x="1024" />

    
    <glyph glyph-name="music" unicode="&#58884;" d="M512 853.333C251.733 853.333 42.667 644.267 42.667 384S251.733-85.33299999999997 512-85.33299999999997 981.333 123.73299999999995 981.333 384 772.267 853.333 512 853.333z m0-896c-234.667 0-426.667 192-426.667 426.667S277.333 810.667 512 810.667s426.667-192 426.667-426.667-192-426.667-426.667-426.667z m192 704h-2.133l-160 19.2c-2.134 2.134-6.4 2.134-8.534 2.134h-4.266c-10.667-2.134-19.2-10.667-19.2-21.334v-384c-17.067 12.8-40.534 21.334-64 21.334H403.2c-59.733 0-106.667-46.934-106.667-106.667S343.467 85.33299999999997 403.2 85.33299999999997h42.667c59.733 0 106.666 46.934 106.666 106.667V509.867l140.8-17.067c4.267-2.133 8.534-2.133 10.667-2.133H708.267c10.666 2.133 19.2 10.666 19.2 21.333V640c-2.134 12.8-10.667 21.333-23.467 21.333zM448 128h-42.667c-36.266 0-64 27.733-64 64s27.734 64 64 64H448c36.267 0 64-27.733 64-64s-27.733-64-64-64z m234.667 407.467l-128 17.066V640l128-17.067v-87.466z"  horiz-adv-x="1024" />

    
    <glyph glyph-name="pause" unicode="&#58941;" d="M512-116.86956522000003C235.39478261-116.86956522000003 11.13043478 107.39478261 11.13043478 384S235.39478261 884.86956522 512 884.86956522s500.86956522-224.26434783 500.86956522-500.86956522-224.26434783-500.86956522-500.86956522-500.86956522z m0 41.73913076c253.56521739 0 459.13043446 205.56521707 459.13043446 459.13043446S765.56521739 843.13043446 512 843.13043446 52.86956554 637.56521739 52.86956554 384s205.56521707-459.13043446 459.13043446-459.13043446zM386.7826087 592.69565185a41.73913076 41.73913076 0 0 0 41.73913075-41.73912979v-333.91304412a41.73913076 41.73913076 0 1 0-83.47826151 0V550.95652206a41.73913076 41.73913076 0 0 0 41.73913076 41.73912979z m250.4347826 0a41.73913076 41.73913076 0 0 0 41.73913076-41.73912979v-333.91304412a41.73913076 41.73913076 0 1 0-83.47826151 0V550.95652206a41.73913076 41.73913076 0 0 0 41.73913075 41.73912979z"  horiz-adv-x="1024" />

    
    <glyph glyph-name="ruler" unicode="&#58932;" d="M700.006985 763.509128a67.302111 67.302111 0 0 1 0-96.726464 70.22829 70.22829 0 0 1 97.539292 0 67.302111 67.302111 0 0 1 0 96.726464 70.390856 70.390856 0 0 1-97.539292 0z m63.40054-61.774884a21.296079 21.296079 0 0 0-29.424353 0 18.532465 18.532465 0 0 0 0 26.823305 21.296079 21.296079 0 0 0 29.424353 0 18.532465 18.532465 0 0 0 0-26.823305zM1030.502619 656.215907L803.886331 876.654707a69.090332 69.090332 0 0 1-95.751071 0L20.15812 206.884902a66.164153 66.164153 0 0 1 0-95.100809L246.611843-108.65470700000003a69.090332 69.090332 0 0 1 95.751072 0l688.139704 669.769805a66.164153 66.164153 0 0 1 0 95.100809z m-33.976186-60.14923l-41.291634-40.153675-90.38641 89.085887a24.384823 24.384823 0 1 1-34.301318-34.789014L920.28322 522.099381l-60.311796-58.848706-99.977774 98.67725a24.384823 24.384823 0 1 1-34.301318-34.789014l99.327512-97.539292L764.057787 370.588347l-118.185109 116.559454a24.384823 24.384823 0 1 1-34.301317-34.789014l117.534846-115.746626L669.607239 278.25115100000005 601.4923 345.065566A24.384823 24.384823 0 0 1 567.028417 310.76424799999995L634.005398 243.78726800000004l-60.311796-58.686141-153.949516 151.836165a24.384823 24.384823 0 0 1-34.301317-34.789014l153.299254-151.023338-60.311796-58.68614L390.157168 180.711859a24.384823 24.384823 0 0 1-34.301318-34.789014l88.760756-87.460232-60.311796-58.686141-105.667566 104.204477A24.384823 24.384823 0 1 1 243.84823 69.19193499999994l105.017304-103.391649L308.874425-73.703127a19.995555 19.995555 0 0 0-27.798699 0L54.134307 146.73567200000002a17.394507 17.394507 0 0 0 0 25.197651l688.139705 669.769804a19.995555 19.995555 0 0 0 27.798698 0L996.363867 621.264328a17.394507 17.394507 0 0 0 0-25.197651z"  horiz-adv-x="1050" />

    
    <glyph glyph-name="audio" unicode="&#59128;" d="M500.831256-101.39981399999999c-255.642791 0-463.08614 207.824372-463.08614 464.038698 0 256.23814 207.252837 464.062512 463.08614 464.062511 255.666605 0 463.08614-207.800558 463.086139-464.062511-0.166698-256.214326-207.419535-464.038698-463.086139-464.038698M500.093023 851.777488C230.447628 851.777488 11.906977 632.689116 11.906977 362.63888399999996 11.906977 92.44576700000005 230.447628-126.475907 500.093023-126.475907c269.645395 0 488.186047 218.921674 488.186047 489.138605-0.214326 270.002605-218.754977 489.114791-488.186047 489.11479M539.314605 640.523907l-2.309954-2.690977a34.292093 34.292093 0 0 1 1.905116-46.508651 336.133953 336.133953 0 0 0 97.994419-237.663256c0-91.278884-36.363907-174.127628-95.303442-234.805581a34.387349 34.387349 0 0 1 48.985303-48.199442A406.266047 406.266047 0 0 1 707.274419 356.13767399999995c0 111.544558-44.770233 212.587163-117.474233 286.267535a34.268279 34.268279 0 0 1-50.509395-1.905116M281.528558 355.185116c0-41.317209 23.742512-75.013953 53.009861-75.013953 29.291163 0 53.00986 33.506233 53.00986 75.013953 0 41.341023-23.718698 75.013953-53.00986 75.013954-29.267349 0-53.00986-33.482419-53.009861-75.013954m196.941395 166.292837a33.149023 33.149023 0 0 1-49.961674 4.048373l-0.762046-0.595349a33.339535 33.339535 0 0 1-3.643535-43.817675 217.564279 217.564279 0 0 0 42.460279-129.738418c0-45.008372-13.573953-86.706605-36.721117-121.522605a33.339535 33.339535 0 0 1 55.296-37.149767 284.886326 284.886326 0 0 1 48.437582 159.434418 283.338419 283.338419 0 0 1-55.129302 169.31721"  horiz-adv-x="1024" />

    
    <glyph glyph-name="picture" unicode="&#58997;" d="M679.528 305.60699999999997l-109.433-108.3c-0.098-0.098-0.287-0.189-0.379-0.287-8.595-8.594-8.595-22.569 0-31.254 8.59-8.588 22.563-8.588 31.254 0 0.568 0.568 0.752 1.322 1.32 1.891l66.004 66 31.158 31.252s21.433-20.11 21.908-19.828c8.211-3.868 18.22-2.643 24.924 4.16 8.594 8.588 8.594 22.561 0 31.248l-15.578 15.584s-2.929 3.301-4.532 4.91c-12.842 12.743-32.39 14.254-46.646 4.624z m88.001-108.679l10.009-10.106c8.595-8.588 22.57-8.588 31.255 0 8.595 8.595 8.595 22.567 0 31.255l-10.102 10.105-0.097-0.097c-0.093 0.097-0.188 0.282-0.28 0.379-8.594 8.592-22.569 8.592-31.254 0-8.595-8.594-8.595-22.569 0-31.255 0.187-0.092 0.28-0.189 0.469-0.281zM836.462 825.5H188.34c-65.15 0-117.84-52.688-117.84-117.84v-648.122c0-65.053 52.781-117.839 117.84-117.839h648.122c65.053 0 117.839 52.786 117.839 117.839V707.66c0 65.152-52.786 117.84-117.839 117.84z m58.917-765.962c0-32.572-26.345-58.917-58.917-58.917H188.34c-32.579 0-58.918 26.345-58.918 58.917v69.873L286.16 279.45000000000005c5.289 4.44 8.687 4.723 13.976 0.097l120.39-98.483c10.386-7.272 21.719-16.336 30.593-16.336 8.876 0 19.453 3.019 30.878 14.445l218.777 218.782c1.136-0.097 2.268-0.379 3.495-0.379 0.379 0 0.756 0.093 1.135 0.093L895.38 193.71500000000003v-134.177h-0.001z m0 220.668L738.073 449.034c-5.666 13.029-18.604 22.191-33.805 22.191-13.597 0-25.307-7.363-31.633-18.318L457.354 237.625c-6.235-4.44-6.235-4.44-13.035 0l-122.183 99.993c-6.703 8.967-17.373 14.821-29.365 14.821-6.136 0-11.899-1.696-16.994-4.341l-5.762-3.687c-1.886-1.415-3.495-3.109-5.099-4.813l-135.495-129.83V707.66c0 32.579 26.339 58.918 58.918 58.918h648.122c32.572 0 58.917-26.339 58.917-58.918v-427.454h0.001zM335.641 678.2c-48.816 0-88.379-39.563-88.379-88.379s39.563-88.379 88.379-88.379 88.379 39.563 88.379 88.379-39.563 88.379-88.379 88.379z m0-117.84c-16.243 0-29.462 13.219-29.462 29.461 0 16.238 13.219 29.46 29.462 29.46 16.237 0 29.461-13.223 29.461-29.46 0-16.242-13.224-29.461-29.461-29.461z m0 0"  horiz-adv-x="1024" />

    
    <glyph glyph-name="fullview-on" unicode="&#59208;" d="M224.512 349.2608c-32.9984 0-59.9296 26.9312-59.9296 59.9296 0 19.0976-15.6416 34.7392-34.7392 34.7392-19.0976 0-34.7392-15.6416-34.7392-34.7392 0-71.4496 58.1888-129.408 129.408-129.408 71.4496 0 129.408 58.1888 129.408 129.408 0 37.3504-15.8464 71.0144-41.2672 94.6688 25.3952 23.68 41.2672 57.3184 41.2672 94.6688 0 71.4496-58.1888 129.408-129.408 129.408-71.4496 0-129.408-58.1888-129.408-129.408 0-19.0976 15.6416-34.7392 34.7392-34.7392 19.0976 0 34.7392 15.6416 34.7392 34.7392 0 32.9984 26.9312 59.9296 59.9296 59.9296s59.9296-26.9312 59.9296-59.9296c0-32.9984-26.9312-59.9296-59.9296-59.9296-19.0976 0-34.7392-15.6416-34.7392-34.7392 0-19.0976 15.6416-34.7392 34.7392-34.7392 32.9984 0 59.9296-26.9312 59.9296-59.9296C284.6464 376.192 257.7152 349.2608 224.512 349.2608L224.512 349.2608zM641.408 426.5472c0 71.4496-58.1888 129.408-129.408 129.408-21.7088 0-42.1376-5.4272-59.9296-14.7712l0 57.5488c0 32.9984 26.9312 59.9296 59.9296 59.9296s59.9296-26.9312 59.9296-59.9296c0-19.0976 15.6416-34.7392 34.7392-34.7392 19.0976 0 34.7392 15.6416 34.7392 34.7392 0 71.4496-58.1888 129.408-129.408 129.408s-129.408-58.1888-129.408-129.408l0-189.568c0-71.4496 58.1888-129.408 129.408-129.408s129.408 58.1888 129.408 129.408L641.408 426.5472 641.408 426.5472zM571.9296 409.1904c0-32.9984-26.9312-59.9296-59.9296-59.9296s-59.9296 26.9312-59.9296 59.9296l0 17.3824c0 32.9984 26.9312 59.9296 59.9296 59.9296s59.9296-26.9312 59.9296-59.9296L571.9296 409.1904 571.9296 409.1904zM799.488 279.78240000000005c71.4496 0 129.408 58.1888 129.408 129.408l0 189.568c0 71.4496-58.1888 129.408-129.408 129.408s-129.408-58.1888-129.408-129.408l0-189.568C669.8752 337.97119999999995 728.064 279.78240000000005 799.488 279.78240000000005L799.488 279.78240000000005zM739.3536 598.7583999999999c0 32.9984 26.9312 59.9296 59.9296 59.9296 32.9984 0 59.9296-26.9312 59.9296-59.9296l0-189.568c0-32.9984-26.9312-59.9296-59.9296-59.9296-32.9984 0-59.9296 26.9312-59.9296 59.9296L739.3536 598.7583999999999 739.3536 598.7583999999999zM420.1472 135.808c-6.7328 6.7328-17.8176 6.7328-24.5248 0-6.7328-6.7328-6.7328-17.8176 0-24.5248l73.8304-73.8304c-109.6448 4.1216-211.072 23.8848-287.7184 56.2432-77.312 32.3584-121.3952 74.9056-121.3952 116.608 0 20.1984 9.984 40.3968 29.5424 59.9296 6.7328 6.7328 6.7328 17.8176 0 24.5248-6.7328 6.7328-17.8176 6.7328-24.5248 0C39.0656 268.46720000000005 25.6 240.02560000000005 25.6 210.27840000000003c0-57.3184 50.5856-110.08 142.2336-148.736 81.2032-34.304 188.0576-54.9376 302.9248-59.0592l-75.3408-75.3408c-6.7328-6.7328-6.7328-17.8176 0-24.5248C398.8736-100.88959999999997 403.2-102.39999999999998 407.7824-102.39999999999998c4.5568 0 8.9088 1.7408 12.3648 4.992l104.2176 104.2176c6.7328 6.7328 6.7328 17.8176 0 24.5248L420.1472 135.808 420.1472 135.808zM933.9136 294.75840000000005c-6.7328-6.7328-6.7328-17.8176 0-24.5248 19.7632-19.5328 29.5424-39.7312 29.5424-59.9296 0-76.0064-139.6224-146.3552-332.0064-167.424-9.5488-1.0752-16.512-9.5488-15.4112-19.0976 0.8704-8.9088 8.4736-15.4112 17.152-15.4112 0.64 0 1.3056 0 1.9456 0 217.1392 23.68 362.8544 104.8832 362.8544 201.9328 0 29.7472-13.4656 58.1888-39.9616 84.48C951.7056 301.696 940.8512 301.49120000000005 933.9136 294.75840000000005L933.9136 294.75840000000005zM928.9216 731.4176C967.1424 731.4176 998.4 762.7008 998.4 800.9216 998.4 839.1424 967.1424 870.4 928.9216 870.4c-38.2208 0-69.4784-31.2576-69.4784-69.4784C859.4176 762.7008 890.7008 731.4176 928.9216 731.4176L928.9216 731.4176zM928.9216 835.6608c19.0976 0 34.7392-15.6416 34.7392-34.7392 0-19.0976-15.6416-34.7392-34.7392-34.7392s-34.7392 15.6416-34.7392 34.7392C894.1824 820.0192 909.7984 835.6608 928.9216 835.6608L928.9216 835.6608z"  horiz-adv-x="1024" />

    
    <glyph glyph-name="fullview" unicode="&#59209;" d="M224.512 349.2608c-32.9984 0-59.9296 26.9312-59.9296 59.9296 0 19.0976-15.6416 34.7392-34.7392 34.7392-19.0976 0-34.7392-15.6416-34.7392-34.7392 0-71.4496 58.1888-129.408 129.408-129.408 71.4496 0 129.408 58.1888 129.408 129.408 0 37.3504-15.8464 71.0144-41.2672 94.6688 25.3952 23.68 41.2672 57.3184 41.2672 94.6688 0 71.4496-58.1888 129.408-129.408 129.408-71.4496 0-129.408-58.1888-129.408-129.408 0-19.0976 15.6416-34.7392 34.7392-34.7392 19.0976 0 34.7392 15.6416 34.7392 34.7392 0 32.9984 26.9312 59.9296 59.9296 59.9296s59.9296-26.9312 59.9296-59.9296c0-32.9984-26.9312-59.9296-59.9296-59.9296-19.0976 0-34.7392-15.6416-34.7392-34.7392 0-19.0976 15.6416-34.7392 34.7392-34.7392 32.9984 0 59.9296-26.9312 59.9296-59.9296C284.6464 376.192 257.7152 349.2608 224.512 349.2608L224.512 349.2608zM641.408 426.5472c0 71.4496-58.1888 129.408-129.408 129.408-21.7088 0-42.1376-5.4272-59.9296-14.7712l0 57.5488c0 32.9984 26.9312 59.9296 59.9296 59.9296s59.9296-26.9312 59.9296-59.9296c0-19.0976 15.6416-34.7392 34.7392-34.7392 19.0976 0 34.7392 15.6416 34.7392 34.7392 0 71.4496-58.1888 129.408-129.408 129.408s-129.408-58.1888-129.408-129.408l0-189.568c0-71.4496 58.1888-129.408 129.408-129.408s129.408 58.1888 129.408 129.408L641.408 426.5472 641.408 426.5472zM571.9296 409.1904c0-32.9984-26.9312-59.9296-59.9296-59.9296s-59.9296 26.9312-59.9296 59.9296l0 17.3824c0 32.9984 26.9312 59.9296 59.9296 59.9296s59.9296-26.9312 59.9296-59.9296L571.9296 409.1904 571.9296 409.1904zM799.488 279.78240000000005c71.4496 0 129.408 58.1888 129.408 129.408l0 189.568c0 71.4496-58.1888 129.408-129.408 129.408s-129.408-58.1888-129.408-129.408l0-189.568C669.8752 337.97119999999995 728.064 279.78240000000005 799.488 279.78240000000005L799.488 279.78240000000005zM739.3536 598.7583999999999c0 32.9984 26.9312 59.9296 59.9296 59.9296 32.9984 0 59.9296-26.9312 59.9296-59.9296l0-189.568c0-32.9984-26.9312-59.9296-59.9296-59.9296-32.9984 0-59.9296 26.9312-59.9296 59.9296L739.3536 598.7583999999999 739.3536 598.7583999999999zM420.1472 135.808c-6.7328 6.7328-17.8176 6.7328-24.5248 0-6.7328-6.7328-6.7328-17.8176 0-24.5248l73.8304-73.8304c-109.6448 4.1216-211.072 23.8848-287.7184 56.2432-77.312 32.3584-121.3952 74.9056-121.3952 116.608 0 20.1984 9.984 40.3968 29.5424 59.9296 6.7328 6.7328 6.7328 17.8176 0 24.5248-6.7328 6.7328-17.8176 6.7328-24.5248 0C39.0656 268.46720000000005 25.6 240.02560000000005 25.6 210.27840000000003c0-57.3184 50.5856-110.08 142.2336-148.736 81.2032-34.304 188.0576-54.9376 302.9248-59.0592l-75.3408-75.3408c-6.7328-6.7328-6.7328-17.8176 0-24.5248C398.8736-100.88959999999997 403.2-102.39999999999998 407.7824-102.39999999999998c4.5568 0 8.9088 1.7408 12.3648 4.992l104.2176 104.2176c6.7328 6.7328 6.7328 17.8176 0 24.5248L420.1472 135.808 420.1472 135.808zM933.9136 294.75840000000005c-6.7328-6.7328-6.7328-17.8176 0-24.5248 19.7632-19.5328 29.5424-39.7312 29.5424-59.9296 0-76.0064-139.6224-146.3552-332.0064-167.424-9.5488-1.0752-16.512-9.5488-15.4112-19.0976 0.8704-8.9088 8.4736-15.4112 17.152-15.4112 0.64 0 1.3056 0 1.9456 0 217.1392 23.68 362.8544 104.8832 362.8544 201.9328 0 29.7472-13.4656 58.1888-39.9616 84.48C951.7056 301.696 940.8512 301.49120000000005 933.9136 294.75840000000005L933.9136 294.75840000000005zM928.9216 731.4176C967.1424 731.4176 998.4 762.7008 998.4 800.9216 998.4 839.1424 967.1424 870.4 928.9216 870.4c-38.2208 0-69.4784-31.2576-69.4784-69.4784C859.4176 762.7008 890.7008 731.4176 928.9216 731.4176L928.9216 731.4176zM928.9216 835.6608c19.0976 0 34.7392-15.6416 34.7392-34.7392 0-19.0976-15.6416-34.7392-34.7392-34.7392s-34.7392 15.6416-34.7392 34.7392C894.1824 820.0192 909.7984 835.6608 928.9216 835.6608L928.9216 835.6608z"  horiz-adv-x="1024" />

    
    <glyph glyph-name="top" unicode="&#59210;" d="M512.00614 670.42494L935.611927 246.81915300000003c5.624091-5.61590401 14.716166-5.615904 20.340257 0 5.609765 5.617951 5.609765 14.718213 0 20.334117L522.172687 700.925604c-5.616928 5.616928-14.710027 5.616928-20.333094 0l-433.786661-433.772334c-2.807952-2.807952-4.211928-6.487761-4.211928-10.16757s1.403976-7.356548 4.211928-10.16757c5.616928-5.615904 14.71719-5.615904 20.334117 0L512.00614 670.42494zM512.00614 490.681206L935.611927 67.07644200000004c5.624091-5.617951 14.716166-5.617951 20.340257 0 5.609765 5.615904 5.609765 14.716166 0 20.332071L522.172687 521.1808470000001c-5.616928 5.616928-14.710027 5.616928-20.333094 0l-433.786661-433.772334c-2.807952-2.807952-4.211928-6.487761-4.21192801-10.16757 0-3.677762 1.403976-7.356548 4.21192801-10.165524 5.616928-5.617951 14.71719-5.617951 20.334117 0L512.00614 490.681206z"  horiz-adv-x="1024" />

    
    <glyph glyph-name="bottom" unicode="&#59212;" d="M511.99386 97.57506000000001L88.388073 521.1808470000001c-5.624091 5.61590401-14.716166 5.615904-20.340257 0-5.609765-5.617951-5.609765-14.718213 0-20.334117L501.827313 67.07439599999998c5.616928-5.616928 14.710027-5.616928 20.333094 0l433.786661 433.772334c2.807952 2.807952 4.211928 6.487761 4.211928 10.16757s-1.403976 7.356548-4.211928 10.16757c-5.616928 5.615904-14.71719 5.615904-20.334117 0L511.99386 97.57506000000001zM511.99386 277.318794L88.388073 700.923558c-5.624091 5.617951-14.716166 5.617951-20.340257 0-5.609765-5.615904-5.609765-14.716166 0-20.332071L501.827313 246.81915300000003c5.616928-5.616928 14.710027-5.616928 20.333094 0l433.786661 433.772334c2.807952 2.807952 4.211928 6.487761 4.21192801 10.16757 0 3.677762-1.403976 7.356548-4.21192801 10.165524-5.616928 5.617951-14.71719 5.617951-20.334117 0L511.99386 277.318794z"  horiz-adv-x="1024" />

    
    <glyph glyph-name="gyroscope" unicode="&#58925;" d="M203.32132701 417.73451401l-0.60312296 363.6835475c0 39.32366075 32.20680189 71.40983755 71.89233664 71.53046142l471.76330142 0.8443731c39.68553475 0.12062508 72.01296172-31.84492786 72.13358558-71.28921247l0.60312296-350.53545183c50.42113499 24.728069 79.97419247 54.03987756 79.97419368 82.98981087 0 14.59559173-7.71998303 29.67368257-23.64244696 44.99302234-5.54873773 5.30748757-8.68498 12.66559659-8.68498 20.3855784 0 7.71998303 3.13624227 15.07809083 8.68498 20.38557961l0.12062507 0.12062387c11.70059841 11.09747424 30.51805567 11.21809932 41.01240696 0 27.14056325-26.05494121 41.37428097-55.12549959 41.37428096-85.76417914 0.12062508-58.74424096-51.50675824-110.00975026-138.71843465-146.43841767l0.72374803-371.28290425c0.12062508-39.32366075-32.20680189-71.40983755-71.89233542-71.53046263l-471.76330142-0.8443731c-39.68553475-0.12062508-72.01296172 31.84492786-72.13358678 71.28921247l-0.60312296 359.70293213c-9.89122711 3.37749243-19.66183037 6.99623378-29.31180855 10.97685038-89.98604466 36.66991635-141.01030381 88.29729966-141.01030381 146.55904032 0 30.63868075 13.99246757 59.70923915 40.89178188 85.88480542 11.57997332 11.21809932 30.03555658 11.21809932 41.61552991 0.12062387 5.54873773-5.30748757 8.68498-12.66559659 8.68498-20.38557841 0-7.71998303-3.13624227-15.07809083-8.68498-20.3855784-15.92246394-15.43996484-23.52182189-30.63868075-23.52182189-44.99302232 0-31.12117862 37.63491453-65.9817249 105.18476178-93.36353709 1.80937129-1.08562205 3.85999152-1.92999515 5.91061053-2.65374439z m48.00864074-16.16371288c60.79486119-17.49058507 132.92844798-28.22618529 209.6457731-30.87992968l-9.89122711-22.43619984-68.99734332 66.70547414c-5.54873773 5.30748757-8.68498 12.66559659-8.68497999 20.3855784 0 7.71998303 3.13624227 15.07809083 8.68497999 20.3855784 11.57997332 11.21809932 30.03555658 11.21809932 41.61552992 0.12062508l97.34415367-94.44916034c5.54873773-5.30748757 8.68498-12.66559659 8.68498121-20.3855784 0-7.71998303-3.13624227-15.07809083-8.68498121-20.38557962L423.82332541 225.82057612000006c-5.66936159-5.18686371-12.90684553-8.08185705-20.62682734-8.08185704-7.84060689-0.12062508-15.31933977 2.89499333-20.98870256 8.32310598-5.54873773 5.30748757-8.68498 12.66559659-8.68498 20.38557841 0 7.71998303 3.13624227 15.07809083 8.56435491 20.3855784l70.08296536 68.39422035 8.92623015-22.31557476c-75.51107801 2.53311932-147.28278957 12.30372257-209.88702205 28.5880593L251.45059282 193.25190022000004l519.77194216 0.96499697-0.24124894 156.93276775c-47.88801567-15.07809083-103.37538928-26.29619014-164.65275078-32.80992483h-1.80937128c-14.95746575 0-27.86431127 10.97685038-29.31180734 25.45181703-1.92999515 15.92246394 9.89122711 30.03555658 26.17556507 31.84492786 64.6548527 6.99623378 122.43409669 19.90307931 169.47773925 36.4286662l-0.60312416 370.31790729c-0.12062508 13.14809568-10.8562253 23.8836959-24.00431977 23.76307204l-471.76330141-0.84437311c-13.14809568 0-23.8836959-10.61497636-23.8836959-23.88369591l0.72374803-379.84726038z m260.42878331-292.51496012c-26.17556507 0-47.52614164-21.10932643-47.64676673-47.40551656 0.24124894-26.17556507 21.59182553-47.2848927 47.76739059-47.16426764 26.17556507 0 47.52614164 21.10932643 47.64676672 47.40551658-0.24124894 26.17556507-21.59182553 47.2848927-47.76739058 47.16426762z m0 0"  horiz-adv-x="1024" />

    


  </font>
</defs>
</svg>
